#TITLE:AKB48-;
#SUBTITLE:;
#ARTIST:Unknown artist;
#TITLETRANSLIT:;
#SUBTITLETRANSLIT:;
#ARTISTTRANSLIT:;
#CREDIT:;
#BANNER:;
#BACKGROUND:;
#LYRICSPATH:;
#CDTITLE:;
#MUSIC:AKB48-.mp3;
#OFFSET:-0.279;
#SAMPLESTART:43.127;
#SAMPLELENGTH:12.000;
#SELECTABLE:YES;
#BPMS:0.000=140.030,234.000=70.015,246.750=140.030;
#STOPS:;
#BGCHANGES:;
// cache tags:
#FIRSTBEAT:0.000;
#LASTBEAT:362.750;
#SONGFILENAME:Songs/je/AKB48-/AKB48-.sm;
#HASMUSIC:1;
#HASBANNER:0;
#MUSICLENGTH:162.515;
// end cache tags

//---------------dance-single - ----------------
#NOTES:
     dance-single:
     :
     Hard:
     1:
     0.875,1.000,1.000,0.554,1.000,633.000,267.000,90.000,0.000,10.000:
1000
0000
0000
0000
0200
0000
0000
0300
0000
0010
0000
0000
0100
0000
0010
0000
,
0000
1000
0000
0010
0100
0010
0000
0100
0001
1000
0000
0010
0000
0100
0010
0000
,
0110
0000
1000
0001
0000
0100
0010
0100
0010
0000
1001
0000
0100
0000
0010
0100
,
0010
1000
0001
0000
0000
0100
0000
0010
0000
0000
1001
0000
0000
0110
0001
1000
,
0010
0100
0001
1010
0100
0001
0100
0010
0101
0000
1010
0000
0000
0202
0000
0000
,
0000
0000
0303
1010
0010
1000
0101
0000
0110
1001
0000
0000
0110
0000
0000
0101
,
0000
1000
0010
0101
0000
0000
0010
1000
0000
0000
0101
0000
0000
0110
0000
1001
,
0000
0110
1001
0000
0101
0010
0101
0000
1001
0000
0110
0000
0000
0000
0202
0000
,
0000
0000
0303
0010
1000
1010
0000
0101
0000
0110
0000
0000
0000
1001
0000
0000
,
0110
0000
0000
0000
1001
0000
0000
0110
0000
0000
1001
0100
0000
0010
0100
0101
,
0000
0000
1010
0000
0000
0000
0101
0000
0000
0110
0000
0000
1001
0000
0000
0000
,
0220
0000
0000
0000
0000
0330
1001
0000
1001
0000
0000
0110
0000
0101
1000
0000
,
0000
0110
0000
0000
1001
0000
0000
0110
0000
0000
0001
1000
0000
0000
0110
0000
,
0000
0101
0000
1010
0000
0000
0101
0000
0000
1010
0000
0000
0000
1001
0000
0000
,
0000
0110
0000
0000
2002
0000
0000
0000
0000
0000
0000
0000
3003
0110
0000
0000
,
0000
0202
0000
0000
0000
0303
0000
1010
0000
0000
0101
0000
0000
0000
1001
0000
,
0000
0100
0010
0000
0001
1000
0000
0110
1001
0002
0000
0000
0000
0000
0000
0000
,
0003
0000
0010
0000
0000
1010
0000
0000
0101
0000
0000
1010
0000
0000
0000
0101
,
0000
0000
1010
0000
0000
0101
0000
0000
0101
0101
0000
0000
0000
1010
0000
0110
,
0000
0000
0101
0000
1001
0000
0110
0110
0000
1101
0000
1001
0000
0000
0110
0000
,
0000
0101
0000
0000
1001
0000
0010
0100
0101
0000
0110
0000
0001
1000
0000
0001
,
0000
0000
0020
0100
0000
0030
0000
0001
1000
0000
0001
0000
0100
0000
0020
0000
,
0000
0030
0100
0000
0020
0000
0000
0000
0000
0000
0000
0000
0030
0101
0000
0101
,
0000
0000
0001
1010
0000
0000
0001
0000
0000
0001
0100
0010
0000
1000
0001
0100
,
0010
0000
0110
0000
0000
0000
1001
0000
0000
0010
0100
0101
0000
0000
1010
0101
,
0000
0010
0100
0001
0000
0000
0111
0000
2012
0000
0000
0000
0000
0000
0000
0000
,
0000
3003
0110
0000
0000
0002
0000
0000
0000
0020
0000
0000
0130
0003
0000
1000
,
0000
0100
0000
0020
0000
0000
0000
0000
0030
0100
0010
0000
0000
0100
0002
0000
,
0000
0000
0000
0000
0000
0000
2003
0000
0200
3000
0000
0300
0020
0000
0000
0000
,
0000
0000
0000
0000
0130
0000
0100
0020
0000
0000
0000
0000
0000
0000
0030
1000
,
0001
0000
0000
0110
0000
0200
0002
0000
0000
0000
0000
0000
0300
0003
0000
1010
,
0000
1010
0000
1010
0000
0000
0000
0000
0101
0000
0000
0000
1010
0000
0000
0000
,
0101
0000
0000
1010
0000
0000
0101
0000
0010
1000
0001
0100
0010
0000
0000
1001
,
0000
0000
0000
0010
0100
0000
0000
1001
0000
0000
0110
0000
0000
0101
1001
0000
,
1001
0001
0000
0001
0110
0000
0000
1001
0000
0110
0001
1000
0010
0100
1001
0000
,
0110
0001
1000
0110
0000
1001
0000
0110
0000
0102
0000
0100
1003
0010
0101
0000
,
1010
0000
0101
0010
0100
0001
1000
0001
0000
0110
0000
0101
0000
1001
0000
0100
,
0010
0110
0000
0110
0000
0110
0000
0110
0000
1001
1001
0010
0100
1001
0000
0110
,
0000
1001
0000
0110
0001
1000
0000
0110
0000
1001
0000
0110
0000
0101
1000
0010
,
0100
0001
0100
0010
1010
0000
0000
0101
0000
1010
0000
0110
0000
0101
0000
0000
,
1010
0000
0101
0000
1110
0001
0000
0110
0000
0101
0000
0101
0000
1001
0010
0000
,
0010
0100
1001
0000
0000
0110
0001
0100
0110
0000
1001
0000
0000
0110
0110
0000
,
0000
1001
0000
0110
0000
1001
0001
0110
0000
0000
1001
0000
0000
0110
0000
0101
,
0000
1001
0000
0000
0110
0000
1001
0000
0110
0001
1100
0000
0000
1001
0000
0000
,
0000
0002
0000
0000
0000
0020
0000
2000
0030
0000
0000
3203
0000
0000
0320
0000
,
0000
0000
0230
0000
0000
0320
0000
0000
1000
0000
0000
0230
0000
0000
0020
0300
,
0000
0100
0030
0000
0002
0000
0000
0000
1000
0003
0000
0100
0020
0000
0000
0030
,
0100
0010
0000
1000
0000
0200
0000
0000
0310
0000
0000
0200
0000
0000
0301
0000
,
0000
0010
0000
0000
0100
2000
0000
0100
3000
0000
0010
0020
0000
0000
0000
0130
,
0000
1000
0000
0100
0010
0000
0010
0000
0101
0000
0100
0010
1000
0000
0010
0100
,
0002
0000
0000
0000
0000
0000
0003
0100
0000
0000
0010
0000
0000
0002
0000
0000
,
0000
0010
0000
0000
0003
0100
0000
0010
0000
0010
0000
1000
0100
0000
0020
0000
,
0000
0000
0030
0100
0000
0010
0000
0000
0100
0000
0010
0000
0010
1000
0000
0110
,
0000
0010
0000
0200
0000
0000
0000
0000
0000
0000
0000
0302
0000
0000
0000
0000
,
0010
0003
0020
0000
0000
0000
0000
0000
0030
2000
0000
0000
0000
0000
3010
0000
,
0020
0000
0000
0030
0000
0200
0000
0000
0000
0320
0000
0000
1030
0000
0000
0010
,
0000
0000
0100
0000
0000
0001
0000
0000
0010
1000
0000
0010
0100
0000
0001
0100
,
0000
0101
0000
1010
0000
1010
0000
0000
0101
0001
0100
0000
0010
1000
0110
0000
,
0000
0101
0000
0000
0000
1010
0000
0000
0002
0000
0000
0000
0000
0000
0000
0023
,
0000
0000
0000
0000
0000
0000
0000
0000
0030
0000
0200
0000
0000
0000
0320
0000
0000
0000
0130
0000
0010
0000
0000
1000
0000
0100
0010
0000
0020
0000
0000
0000
,
0000
0000
0000
0230
0000
0000
0000
0000
0000
0000
0000
0000
0000
0010
0000
0010
0000
0310
0000
0000
0010
0000
0020
0000
0000
0000
0000
0000
1000
0030
0200
0000
,
0000
0320
0000
0000
0000
0130
0000
0000
0020
0000
1030
0000
0100
0010
0000
0010
0020
0000
0000
0000
0000
0000
0030
0000
0002
0000
0000
0000
0000
0000
0010
0000
,
0100
0010
0000
1000
0000
0010
0000
0110
0000
0010
0000
0000
0100
0010
0100
0010
,
0000
0000
0000
0013
0200
0010
0000
0001
0000
0300
0010
1000
0000
0010
0010
0000
,
0100
0010
0000
0010
0000
0100
0010
1002
0000
0000
0000
0000
0000
0003
0000
0020
,
0000
0000
0100
1000
0100
0001
0000
0000
0001
0100
0001
1000
0001
0100
0000
0000
,
0001
0000
0001
0000
0100
0001
0000
1000
0000
0030
0010
0100
0000
0000
0001
1000
,
0000
0110
0000
0001
0100
0000
1010
0000
0101
0010
0100
0002
0200
0000
0000
0000
,
0303
0000
1010
0000
1001
0000
0110
0000
0101
0000
0000
0110
0000
0101
0000
1010
,
1001
0000
0000
0000
0110
0101
0000
0000
0010
1000
0001
0100
0010
0101
1000
0000
,
0000
0110
0000
0000
0101
0000
0000
1010
0000
0000
0101
0000
0000
0110
0000
0110
,
0000
0000
0000
0000
0000
0002
0000
0000
0000
0000
0000
0020
0000
0003
0230
0000
,
0000
0000
0320
0000
0000
2030
0000
0000
0000
3100
0000
0020
0000
0000
0000
0130
,
0000
0010
0000
0000
0000
0100
0000
0001
1000
0000
0000
0010
0000
0001
0100
0000
,
0000
0010
0000
1001
0000
0010
0100
0000
0101
0000
0000
1010
0000
0000
0101
0000
,
0000
0110
0000
0000
1001
0000
0000
0010
0100
0001
0100
0010
1000
0001
0000
0110
,
0000
0101
0000
0000
0000
0000
1010
0000
2010
0002
0000
3000
0110
0003
0000
1001
,
0000
1001
0000
0000
0110
0001
1000
0000
0000
0110
0000
0110
0000
0000
0000
1001
,
0000
1001
0000
0000
0110
0000
0101
0001
0100
0000
1010
0000
1001
0000
0110
0000
,
1001
0000
0110
0000
2002
0000
0000
3003
0000
0110
0000
0101
0000
0101
0000
0110
,
0000
0100
0010
0101
0000
1010
0000
0001
0100
0110
0000
2002
0000
0000
0000
3003
,
0000
0110
0101
0000
0000
0101
0000
0102
0000
0100
0010
0003
1001
0000
0111
0000
,
0101
0000
0000
0101
0202
0000
0000
0000
0000
0303
0000
0110
0000
1001
0000
0000
,
0110
1001
0000
0110
0000
0001
1000
0001
1000
0010
0100
0001
0000
1000
0002
0000
,
0020
0003
0000
0230
0000
0000
0000
0000
,
0000
0000
0320
0000
0000
0000
0000
0000
0000
0000
0000
0000
0000
0000
0030
0101
,
0000
0000
0000
0000
1010
0000
0000
0000
0101
0000
0000
0000
0000
1010
0000
0000
,
0000
0101
0000
0000
0000
0110
0000
0000
0000
1001
0000
0000
0110
0000
0000
1001
,
0000
0000
0110
0000
0000
0000
1001
0000
0000
0110
0101
0000
0000
1010
0000
0000
,
0000
0000
0101
0000
0000
0110
0000
0000
1001
0000
0000
0110
0101
0000
1001
0010
,
0100
0001
0100
0100
0002
0000
0000
0100
0000
0000
0000
0003
0000
0000
0000
0000
;

//---------------dance-single - ----------------
#NOTES:
     dance-single:
     :
     Easy:
     1:
     0.836,0.977,1.000,0.486,1.000,598.000,263.000,79.000,0.000,11.000:
0000
1000
0000
0000
0000
0000
0000
0000
0100
0000
0000
0000
0000
0001
0000
0000
0000
0000
0000
0000
0000
0000
0100
0000
0000
0000
0000
0000
0000
0100
0000
0000
,
0001
0000
0000
0000
0000
0010
0000
0000
0000
0100
0000
0010
0000
0000
0000
1000
0000
0000
0000
0002
0000
0000
0000
0000
0000
0000
0000
0000
0000
0003
0000
0000
,
0010
0000
0000
0010
0000
0000
0001
0000
0000
0100
0000
0010
0000
0000
0000
0000
0000
1000
0000
0000
0000
0000
0000
0000
0010
0000
0000
0000
0000
0100
0000
0000
,
0002
0000
0000
0000
0000
0000
0003
1000
0000
0000
0000
0000
0000
0000
0010
0000
0000
0000
0000
0000
0100
0000
0000
0000
0000
0000
0000
0001
0000
0000
1000
0000
,
0000
0010
0000
0000
0000
0100
0000
0010
0000
0000
0000
0000
0000
0000
0000
0100
0000
0001
0000
0000
0000
0000
0000
0000
0000
0000
0020
0000
0000
0000
0000
0000
,
0000
0000
0030
0000
0000
0001
0000
0000
0100
0000
0010
0000
0000
0000
1000
0000
0000
0001
0000
0000
0000
0000
0100
0000
0000
0000
0000
0000
0000
0010
0000
0000
,
0000
0000
0000
0000
0000
0001
0000
0000
1000
0000
0000
0000
0000
0000
0000
0010
0000
0000
0000
0000
0000
0100
0000
0000
0000
0000
0000
0000
0001
0000
0000
0000
,
0000
0000
1000
0000
0000
0010
0000
0000
0100
0000
0000
0001
0000
0000
0000
1000
0000
0000
0010
0000
0000
0100
0000
0000
0000
0010
0000
0000
0000
0100
0000
0001
,
0000
0000
0000
0000
0010
0000
0000
0000
0000
1000
0000
0000
0010
0000
0000
0100
0000
0000
0001
0000
0000
0000
0000
0010
0000
0000
0000
0100
0010
0000
0000
0000
,
0000
0000
1001
0000
0000
0000
0000
0000
0000
0110
0000
0000
0000
0000
0000
0101
0000
0000
0000
0000
0000
1010
0000
0000
0000
0000
0000
0001
0100
0000
0000
0110
,
0000
0000
0000
0000
0000
0000
0001
0000
0000
0000
0000
0000
0000
0010
0100
0000
0000
0000
0000
0000
0000
0110
0000
0000
0000
0000
0000
1001
0000
0000
0000
0000
,
0000
0000
0110
0000
0000
0000
0000
0000
0000
0000
0000
0000
0000
0001
0100
0000
0000
1010
0000
0000
0000
0000
0000
0000
0000
0101
0000
0000
0000
0000
0000
0000
,
0000
0000
0000
0000
0000
0000
0000
0000
0110
0000
0000
0110
0000
0000
0000
0000
0000
1001
0000
0000
0000
0000
0010
0100
0000
0000
0000
0000
0000
0101
0000
0000
,
0000
0000
0000
1010
0000
0000
0000
0101
0000
0000
0000
0000
0000
0002
0000
0000
0000
0000
0000
0000
0000
0000
0000
0000
0000
0000
0000
0000
0000
0000
0000
0000
,
0000
0000
0000
0010
0000
0003
0000
0000
0000
0100
0000
0000
0000
0000
0000
0110
0000
0000
0000
0000
0000
0000
1001
0000
0000
0000
0000
0000
0110
0000
0000
0000
,
0000
0000
0000
0101
0000
0000
0000
0000
0110
0000
0000
0000
0000
0000
0000
0000
1001
0000
0000
0000
0000
0000
0110
0000
0000
0000
0000
0000
0000
0101
0000
0000
,
0000
0000
0000
0000
1010
0000
0000
0000
0000
0000
0101
0000
0100
0001
0000
0000
0010
0000
0000
0000
0020
0000
0000
0000
0000
0000
0000
0000
0030
0000
0000
0000
,
0000
0000
0000
0101
0000
0000
0000
0000
0000
0000
1010
0000
0000
0000
0000
0000
0101
0000
0000
0000
0000
0000
1010
0000
0000
0000
0000
0000
0101
0000
0000
0000
,
0000
0000
0000
1000
0010
0000
0110
0000
0000
0000
0000
0000
0000
0000
0001
1000
0000
0000
0010
0100
0000
0000
0000
0000
0000
0000
0001
0100
0000
0000
0001
1000
,
0000
0000
0000
0000
0000
0110
0000
0000
0101
0000
0000
0000
1010
0000
0000
0101
0000
0000
0000
0101
0000
0000
0000
0000
0000
1110
0000
0000
1101
0000
0000
0000
,
0000
0000
0110
0000
0000
0000
0000
0000
0110
0000
0000
0000
0000
0000
1001
0000
0000
0010
0000
0100
0000
0001
0000
0000
0000
0010
0000
0000
0000
0010
0000
0000
,
0000
0000
0000
0000
0020
0000
0000
0000
0000
0000
0030
0000
0000
0000
0010
0000
0000
0010
0000
0000
0000
0000
0001
0000
0000
0000
0000
0100
0000
0010
0000
0000
,
0000
0000
0000
0100
0000
0010
0000
0000
1000
0000
0000
0200
0000
0000
0000
0000
0000
0000
0000
0000
0000
0000
0000
0000
0000
0000
0000
0310
0000
0000
0020
0000
,
0000
0000
0000
0000
0030
1000
0000
0100
0000
0000
0000
0000
0000
0010
0000
0000
0000
0000
0010
0000
0000
0000
0100
0000
0000
0001
0000
0000
0001
0000
0000
0000
,
0100
0000
0000
0010
0000
0000
0010
0000
0000
0000
0000
0100
0000
1000
0000
0000
0000
0000
0000
0000
0000
0010
0000
0000
0010
0000
0000
0000
0100
0000
0001
0000
,
0000
0100
0000
0000
0010
0000
0000
0000
0000
0000
0000
1000
0000
0000
0100
0000
0000
0020
0000
0000
0000
0000
0000
0000
0000
0000
0000
0000
0000
0000
0000
0000
,
0030
0000
0000
0100
0000
0010
0000
0000
0000
0010
0000
0000
0000
0000
1000
0000
0000
0100
0000
0000
0000
0010
0020
0000
0000
0000
0000
0030
0100
0000
0000
0002
,
0000
0000
0000
0000
0000
0020
0000
0000
0003
0000
0000
0000
0000
0000
0000
0000
0000
0030
0200
0000
0000
0000
0000
0310
0000
0000
0000
0010
0000
2000
0000
0000
,
0000
0000
0000
0000
0000
0000
0000
0000
0000
0000
0000
3000
0010
0000
0000
0010
0000
0000
0000
0100
0000
0000
0000
0000
0020
0000
0000
0000
0000
0000
0000
0000
,
0000
0000
0000
0000
0000
0000
0000
0000
0030
0000
0100
0000
0000
0100
0000
0000
1000
0000
0000
0000
0000
0200
0000
0000
0000
0000
0000
0000
0000
0300
0000
0000
,
0010
0000
0010
0000
0001
0000
0000
0020
0000
0000
0000
0000
0000
0000
0000
0030
,
0000
0100
0000
0000
0100
0000
0000
2000
0000
0000
0000
0000
0000
0000
0000
0000
3000
0000
0000
0000
0020
0000
0000
0000
0000
0000
0030
0100
0000
0000
0000
0000
,
0000
0010
0000
0000
0000
0000
0000
0000
0000
0002
0000
0000
0000
0000
0010
0000
0003
0000
1000
0000
0000
0100
0000
0000
0020
0000
0000
0000
0000
0000
0000
0000
,
0000
0000
0000
0000
0000
0000
0000
0000
0000
0000
0000
0000
0000
0000
0000
0000
0000
0000
0000
0000
0000
0000
0000
0000
0000
0130
0000
0000
0100
0000
0100
0000
,
0000
0100
0000
0000
0100
0000
0000
0000
0100
0000
0100
0000
0000
0000
0000
0001
0000
0000
0000
1010
0000
0000
0000
0101
0000
0000
0000
0000
0110
0000
0000
0000
,
1001
0000
0000
0110
0000
0000
0101
0000
0000
0000
0000
0000
1010
0000
0000
0110
0000
0000
0000
0000
0000
0000
0000
1001
0000
0000
0110
0000
0000
0101
0000
0000
,
1000
0010
0000
0000
0000
0000
0000
0000
0101
0000
0000
0000
0000
1000
0010
0000
0000
0000
0000
0000
0101
0000
0000
0000
0000
0000
1010
0000
0000
0000
0000
0000
,
0101
0000
0000
0110
0000
0000
0000
0000
0000
1001
0000
0000
0010
0100
0000
0000
0101
0000
0000
0000
1010
0000
0000
0000
0000
0101
0000
0000
0110
0000
0000
0000
,
0000
1001
0000
0000
0000
0110
0000
0000
0101
0000
0000
1010
0000
0000
0000
0101
0000
0000
0000
0000
1010
0000
0000
1101
0000
0000
0000
0000
0000
0110
0000
0000
,
0000
1001
0000
0000
0100
0010
0000
1001
0000
0000
0000
0000
0000
0000
0111
0000
0000
0000
0000
0000
0101
0000
0000
0000
0000
0000
0000
1010
0000
0000
0000
0000
,
0000
0110
0000
0001
0100
0000
0000
1010
0000
0000
1001
0000
0000
0000
0000
0110
0000
0000
0110
0000
0000
0110
0000
0000
0000
0000
0000
1001
0000
0000
1001
0000
,
0000
0000
0000
0110
0000
0000
0110
0000
0000
0000
0000
1001
0000
0000
0001
1000
0000
0000
0000
0110
0000
0000
0101
0000
0000
0000
0000
0000
1001
0000
0000
1101
,
0000
0000
0000
0000
0000
0110
0000
0000
0110
0000
0000
0000
1001
0000
0000
1001
0000
0000
0000
0000
0000
0100
0010
0000
0000
0000
0000
0101
0000
0000
0000
0000
,
0000
0000
1010
0000
0000
0000
0000
0000
1101
0000
0000
0101
0000
0000
0110
0000
0000
0000
0101
0000
0000
0000
0000
0000
0101
0000
0000
0000
0101
0000
0000
0000
,
0000
0000
0020
0000
0000
0000
0000
0000
0000
0000
0200
0030
0000
0000
0000
0000
0000
2300
0000
0000
0000
0000
0002
0000
3000
0000
0000
0000
0000
0200
0003
0000
,
0000
0000
0020
0300
0000
0000
0000
0000
0000
1000
0030
0000
0000
0000
0000
0200
0000
0000
0000
0000
0000
0020
0300
0000
0000
0000
0000
0000
0200
0030
0000
0000
,
0000
0000
0302
0000
0000
0000
0000
0000
0000
0010
0000
0000
0000
0003
0000
0100
0000
0000
0000
0000
0010
0000
0000
0010
0000
0000
0000
0000
0100
0000
0001
0000
,
0000
0001
0010
0000
0000
0000
0000
1000
0000
0000
0010
0100
0000
0000
0000
0000
0000
0101
0000
0000
0000
0000
0000
1010
0000
0000
0000
0000
0000
0101
0000
0000
,
0000
0000
0000
1010
0000
0000
0000
0000
0001
0100
0000
0000
0101
0000
0000
0000
0000
0000
1010
0000
0000
0110
0000
0000
0000
0000
0000
0000
0101
0000
0000
0000
,
0000
0000
1010
0000
0000
0000
0000
0000
0000
0101
0000
0000
0000
0000
1010
0000
0000
0000
0101
0000
0000
0000
0110
0000
0000
1001
0000
0000
0000
0110
0000
0110
,
0000
0000
0000
0202
0000
0000
0000
0000
0000
0000
0000
0000
0000
0303
0000
0000
0110
0000
0000
0000
0000
0000
0000
1001
0000
0000
0000
0000
0000
0110
0000
0000
,
0000
0000
0000
0000
1010
0000
0000
0000
0000
0000
0101
0000
0000
0000
0000
0010
1000
0000
0000
1010
0000
0000
0000
0000
0000
0101
0000
0000
0101
0000
0000
0000
,
0000
0000
0000
1010
0000
0000
0000
0000
0000
0000
0101
0000
0000
0000
0000
0000
0110
0000
0000
0000
1001
0000
0000
0010
0100
0000
0000
0101
0000
0000
1010
0000
,
0000
0001
0100
0000
0010
0100
0000
0020
0100
0000
0000
0000
0000
0000
0000
0000
0000
0000
0000
0000
0030
0000
0002
0000
0000
0000
0000
0000
0000
0000
0000
0010
,
0003
0000
0020
0000
0000
0000
0000
0000
0000
0000
0000
0000
0000
0000
0000
0030
0200
0000
0000
0000
0000
0000
0000
0000
0000
0000
0000
0310
0000
0020
0000
0000
,
0000
0000
0000
0000
0000
0000
0000
0000
0000
0000
0000
0000
0000
0030
0000
1000
0000
0000
0000
0000
0000
0000
0110
0000
0000
0000
0000
0000
0000
0000
0101
0000
,
0000
0000
0000
0000
1010
0000
0000
0000
0000
0000
0101
0000
0000
0000
0000
0000
0000
0110
0000
0000
0000
0000
0000
0100
0010
0000
0000
0000
0000
0000
1001
0000
,
0000
1001
0000
0000
0000
0000
0000
0110
0000
0000
0110
0000
0000
0000
0000
0000
0000
0101
0000
0000
0101
0000
0000
0000
0000
0000
1010
0000
0000
0000
1010
0000
,
0010
0000
0000
0000
0000
0100
0001
0000
0000
0000
0000
0101
0000
0000
0000
0000
0000
0020
0000
0000
0000
0000
0000
0000
0000
0000
0000
0000
0000
0000
2030
0000
,
0000
0000
0000
0000
0000
0000
0000
0000
0000
0000
0000
3020
0000
0000
0000
0200
0030
0000
0020
0300
0000
0000
0000
0000
1030
0000
0100
0000
0010
0020
0000
0000
,
0000
0000
0000
0000
0000
0030
0200
0000
0000
0000
0000
0000
0010
0000
0000
0000
0010
0000
0010
0000
0301
0000
0002
0000
0000
0000
0000
0000
0000
0000
0000
2000
,
0003
0000
0000
0000
3200
0000
0000
0000
0000
0000
0310
0000
0020
0000
0000
0030
0000
0100
0000
0001
0000
0001
0000
0001
0000
0001
0000
0000
0000
0000
0002
0000
,
0000
0000
0000
0000
0000
0000
0000
0000
0010
0000
0000
0000
1000
0000
0010
0000
0000
0100
0000
0010
0000
0000
0000
0000
0000
0100
0000
0020
0000
0000
0000
0000
,
0000
0000
0030
0003
0000
0010
0000
0100
0000
0000
0000
0000
0100
0000
0010
0000
0000
0000
0000
0000
0100
0010
0000
0000
0000
0000
1001
0000
0000
0000
0000
0000
,
0000
0110
0000
0000
0000
0000
0000
0101
0000
0000
0000
0110
0000
0000
1001
0000
0000
0220
0000
0000
0000
0000
0000
0000
0300
0030
0000
0000
0000
0000
0000
0101
,
0000
0001
0100
0000
0000
0000
0000
1010
0000
0000
0000
1001
0000
0000
0000
0000
0110
0000
0000
0101
0000
0000
0000
1010
0000
0000
1101
0000
0000
0000
0000
0000
,
0110
0000
0000
0110
0000
0000
0000
0000
0000
1001
0000
0000
0110
0000
0000
0000
1101
0000
0000
0000
0110
0000
0000
0000
0000
0000
0000
1001
0000
0000
0000
0000
,
0000
1110
0000
0000
0000
0000
0000
1001
0000
0000
0000
0000
0000
0000
0110
0000
0000
0000
0000
0000
1001
0000
0000
0110
0000
0000
0000
0000
0000
1001
0000
0000
,
1010
0000
0000
0000
0000
0000
0000
0101
0000
0000
0000
0000
0101
0000
0000
1010
0000
1001
0100
0000
0000
0000
0000
0110
0000
0000
0110
0000
0000
0000
1001
0000
,
0000
1001
0000
0000
0000
0000
0000
0110
0000
0000
0110
0000
0000
0000
0000
0000
1001
0000
0000
1001
0000
0000
0001
0100
0000
0000
0111
0000
0000
0000
0000
0000
,
0000
1001
0000
0000
0000
0000
0000
0000
0110
0000
0000
0000
0000
0000
1001
0000
0000
0000
0000
0000
0000
0110
0000
0000
0101
0000
0000
0101
0000
0000
0000
1010
,
0000
0000
0000
0110
0000
0000
0000
0000
0001
0100
0000
0000
0000
0000
0000
0000
0002
0000
0000
0000
0000
0000
0020
0000
0000
0003
0000
0000
0200
0000
0030
0000
,
0000
0000
0020
0000
0300
0000
0000
0000
0000
0200
0030
0000
0000
0000
0000
0320
0000
0000
0000
0000
0000
1000
0030
0000
0000
0200
0000
0000
0000
0000
0000
0010
,
0300
0000
0000
0200
0000
0000
0000
0000
0000
0302
0000
0000
0000
0000
0000
0000
0103
0000
0000
0000
0000
0000
0110
0000
0000
0000
0000
0000
0000
0101
0000
0000
,
0000
0000
0000
1010
0000
0001
1000
0000
0000
0000
0000
0000
0110
0000
0000
0110
0000
0000
0000
0000
0000
1001
0000
0000
0000
0000
0000
1110
0000
0000
0000
0000
,
0000
0000
0101
0000
0000
0000
0000
0000
0110
0000
0000
0000
0000
0000
0101
0000
0000
1000
0010
0000
0000
0100
0010
0000
0100
0001
0000
0000
0000
0000
0000
0101
,
0202
0000
0000
0000
0000
0000
0000
0303
0000
0000
0000
0110
0000
0000
0110
0000
0000
0010
1000
0000
0000
1010
0000
0000
1000
0001
0000
0000
0000
0000
0000
0000
,
0110
0000
0000
0101
0000
0000
0000
0000
0000
0010
1000
0000
1010
0000
0000
0000
0000
0000
0000
0202
0000
0000
0000
0000
0000
0000
0303
0000
0000
0000
0110
0000
,
0000
0110
0000
0000
0000
0000
1001
0000
0000
0000
1001
0000
0000
0000
0000
0000
0110
0000
0000
0110
0000
0000
0000
0000
0000
0000
0101
0000
0000
0101
0000
0000
,
0000
1010
0000
0000
0000
0110
0000
0000
0002
0000
0000
0000
0000
0000
0000
0000
0000
0000
0003
0000
0000
0000
0110
0000
0000
0010
0100
0000
0000
1001
0000
0000
,
0000
0010
0100
0000
0000
0101
0000
0000
0000
1010
0000
0000
0101
0000
0000
0000
0110
0000
0000
0110
0000
0000
0000
0000
0000
0000
0202
0000
0000
0000
0000
0000
,
0000
0000
0300
0003
0000
0000
0000
0110
0000
0100
0010
0000
0000
1010
0000
0000
1000
0010
0000
0000
0001
0000
0000
0000
0101
0000
0000
0110
0000
0000
1000
0001
,
0000
0000
0000
0000
0110
0000
0000
0110
0000
0000
0000
0000
0000
0202
0000
0000
0000
0000
0000
0000
0303
0000
0000
0000
0110
0000
0000
0110
0000
0000
1001
0000
,
0000
0000
0000
0110
0000
0101
0000
0000
0000
0000
1010
0000
0000
0010
0000
0100
0001
0000
0000
0100
0001
0000
0000
0000
1010
0000
0000
0101
0000
0000
0000
0000
,
0000
0002
0000
0000
0000
0000
0000
0000
0000
0000
0000
0023
0000
0000
0000
0000
0000
0000
0000
0000
0000
0000
0000
0000
0000
0000
0000
0000
0000
0000
0000
0000
,
0000
0000
0000
0000
0000
0230
0000
0000
0000
0000
0000
0000
0000
0000
0000
0000
0000
0000
0000
0000
0000
0000
0000
0000
0000
0000
0000
0300
0020
0000
0000
0000
,
0000
0000
0000
0000
0000
0000
0030
0000
0002
0000
0000
0000
0000
0000
0000
0000
0000
0000
0200
0003
0000
0000
0000
0000
0000
0000
0000
0020
0300
0000
0000
0000
,
0000
0000
0000
0000
1030
0000
0000
0000
0000
0000
0000
0000
0110
0000
0000
0000
0000
0000
0000
0101
0000
0000
0000
0000
0000
1010
0000
0000
0000
0000
0000
0000
,
0101
0000
0000
0000
0000
0000
0110
0000
0000
0000
0000
1001
0000
0000
0000
0000
0000
0010
0100
0000
0110
0000
0000
0000
0000
0000
1001
0000
0000
1001
0000
0000
,
0000
0000
0000
0000
0000
0110
0000
0000
0000
0000
0000
0101
0000
0000
0000
0000
1000
0010
0000
0000
0000
1001
0000
0100
0010
0000
0000
1001
0000
0000
0110
0000
,
0000
0001
0100
0000
0000
0101
0000
0000
0002
0000
0000
0000
0000
0000
0000
0000
0000
0000
0000
0000
0000
0000
0003
0000
0000
0000
0000
0000
0000
0000
0000
0000
;

//---------------dance-single - Copied from ----------------
#NOTES:
     dance-single:
     Copied from :
     Medium:
     1:
     0.836,0.977,1.000,0.486,1.000,598.000,263.000,79.000,0.000,11.000:  // measure 1
0000
1000
0000
0000
0000
0000
0000
0000
0100
0000
0000
0000
0000
0001
0000
0000
0000
0000
0000
0000
0000
0000
0100
0000
0000
0000
0000
0000
0000
0100
0000
0000
,  // measure 2
0001
0000
0000
0000
0000
0010
0000
0000
0000
0100
0000
0010
0000
0000
0000
1000
0000
0000
0000
0002
0000
0000
0000
0000
0000
0000
0000
0000
0000
0003
0000
0000
,  // measure 3
0010
0000
0000
0010
0000
0000
0001
0000
0000
0100
0000
0010
0000
0000
0000
0000
0000
1000
0000
0000
0000
0000
0000
0000
0010
0000
0000
0000
0000
0100
0000
0000
,  // measure 4
0002
0000
0000
0000
0000
0000
0003
1000
0000
0000
0000
0000
0000
0000
0010
0000
0000
0000
0000
0000
0100
0000
0000
0000
0000
0000
0000
0001
0000
0000
1000
0000
,  // measure 5
0000
0010
0000
0000
0000
0100
0000
0010
0000
0000
0000
0000
0000
0000
0000
0100
0000
0001
0000
0000
0000
0000
0000
0000
0000
0000
0020
0000
0000
0000
0000
0000
,  // measure 6
0000
0000
0030
0000
0000
0001
0000
0000
0100
0000
0010
0000
0000
0000
1000
0000
0000
0001
0000
0000
0000
0000
0100
0000
0000
0000
0000
0000
0000
0010
0000
0000
,  // measure 7
0000
0000
0000
0000
0000
0001
0000
0000
1000
0000
0000
0000
0000
0000
0000
0010
0000
0000
0000
0000
0000
0100
0000
0000
0000
0000
0000
0000
0001
0000
0000
0000
,  // measure 8
0000
0000
1000
0000
0000
0010
0000
0000
0100
0000
0000
0001
0000
0000
0000
1000
0000
0000
0010
0000
0000
0100
0000
0000
0000
0010
0000
0000
0000
0100
0000
0001
,  // measure 9
0000
0000
0000
0000
0010
0000
0000
0000
0000
1000
0000
0000
0010
0000
0000
0100
0000
0000
0001
0000
0000
0000
0000
0010
0000
0000
0000
0100
0010
0000
0000
0000
,  // measure 10
0000
0000
1001
0000
0000
0000
0000
0000
0000
0110
0000
0000
0000
0000
0000
0101
0000
0000
0000
0000
0000
1010
0000
0000
0000
0000
0000
0001
0100
0000
0000
0110
,  // measure 11
0000
0000
0000
0000
0000
0000
0001
0000
0000
0000
0000
0000
0000
0010
0100
0000
0000
0000
0000
0000
0000
0110
0000
0000
0000
0000
0000
1001
0000
0000
0000
0000
,  // measure 12
0000
0000
0110
0000
0000
0000
0000
0000
0000
0000
0000
0000
0000
0001
0100
0000
0000
1010
0000
0000
0000
0000
0000
0000
0000
0101
0000
0000
0000
0000
0000
0000
,  // measure 13
0000
0000
0000
0000
0000
0000
0000
0000
0110
0000
0000
0110
0000
0000
0000
0000
0000
1001
0000
0000
0000
0000
0010
0100
0000
0000
0000
0000
0000
0101
0000
0000
,  // measure 14
0000
0000
0000
1010
0000
0000
0000
0101
0000
0000
0000
0000
0000
0002
0000
0000
0000
0000
0000
0000
0000
0000
0000
0000
0000
0000
0000
0000
0000
0000
0000
0000
,  // measure 15
0000
0000
0000
0010
0000
0003
0000
0000
0000
0100
0000
0000
0000
0000
0000
0110
0000
0000
0000
0000
0000
0000
1001
0000
0000
0000
0000
0000
0110
0000
0000
0000
,  // measure 16
0000
0000
0000
0101
0000
0000
0000
0000
0110
0000
0000
0000
0000
0000
0000
0000
1001
0000
0000
0000
0000
0000
0110
0000
0000
0000
0000
0000
0000
0101
0000
0000
,  // measure 17
0000
0000
0000
0000
1010
0000
0000
0000
0000
0000
0101
0000
0100
0001
0000
0000
0010
0000
0000
0000
0020
0000
0000
0000
0000
0000
0000
0000
0030
0000
0000
0000
,  // measure 18
0000
0000
0000
0101
0000
0000
0000
0000
0000
0000
1010
0000
0000
0000
0000
0000
0101
0000
0000
0000
0000
0000
1010
0000
0000
0000
0000
0000
0101
0000
0000
0000
,  // measure 19
0000
0000
0000
1000
0010
0000
0110
0000
0000
0000
0000
0000
0000
0000
0001
1000
0000
0000
0010
0100
0000
0000
0000
0000
0000
0000
0001
0100
0000
0000
0001
1000
,  // measure 20
0000
0000
0000
0000
0000
0110
0000
0000
0101
0000
0000
0000
1010
0000
0000
0101
0000
0000
0000
0101
0000
0000
0000
0000
0000
1110
0000
0000
1101
0000
0000
0000
,  // measure 21
0000
0000
0110
0000
0000
0000
0000
0000
0110
0000
0000
0000
0000
0000
1001
0000
0000
0010
0000
0100
0000
0001
0000
0000
0000
0010
0000
0000
0000
0010
0000
0000
,  // measure 22
0000
0000
0000
0000
0020
0000
0000
0000
0000
0000
0030
0000
0000
0000
0010
0000
0000
0010
0000
0000
0000
0000
0001
0000
0000
0000
0000
0100
0000
0010
0000
0000
,  // measure 23
0000
0000
0000
0100
0000
0010
0000
0000
1000
0000
0000
0200
0000
0000
0000
0000
0000
0000
0000
0000
0000
0000
0000
0000
0000
0000
0000
0310
0000
0000
0020
0000
,  // measure 24
0000
0000
0000
0000
0030
1000
0000
0100
0000
0000
0000
0000
0000
0010
0000
0000
0000
0000
0010
0000
0000
0000
0100
0000
0000
0001
0000
0000
0001
0000
0000
0000
,  // measure 25
0100
0000
0000
0010
0000
0000
0010
0000
0000
0000
0000
0100
0000
1000
0000
0000
0000
0000
0000
0000
0000
0010
0000
0000
0010
0000
0000
0000
0100
0000
0001
0000
,  // measure 26
0000
0100
0000
0000
0010
0000
0000
0000
0000
0000
0000
1000
0000
0000
0100
0000
0000
0020
0000
0000
0000
0000
0000
0000
0000
0000
0000
0000
0000
0000
0000
0000
,  // measure 27
0030
0000
0000
0100
0000
0010
0000
0000
0000
0010
0000
0000
0000
0000
1000
0000
0000
0100
0000
0000
0000
0010
0020
0000
0000
0000
0000
0030
0100
0000
0000
0002
,  // measure 28
0000
0000
0000
0000
0000
0020
0000
0000
0003
0000
0000
0000
0000
0000
0000
0000
0000
0030
0200
0000
0000
0000
0000
0310
0000
0000
0000
0010
0000
2000
0000
0000
,  // measure 29
0000
0000
0000
0000
0000
0000
0000
0000
0000
0000
0000
3000
0010
0000
0000
0010
0000
0000
0000
0100
0000
0000
0000
0000
0020
0000
0000
0000
0000
0000
0000
0000
,  // measure 30
0000
0000
0000
0000
0000
0000
0000
0000
0030
0000
0100
0000
0000
0100
0000
0000
1000
0000
0000
0000
0000
0200
0000
0000
0000
0000
0000
0000
0000
0300
0000
0000
,  // measure 31
0010
0000
0010
0000
0001
0000
0000
0020
0000
0000
0000
0000
0000
0000
0000
0030
,  // measure 32
0000
0100
0000
0000
0100
0000
0000
2000
0000
0000
0000
0000
0000
0000
0000
0000
3000
0000
0000
0000
0020
0000
0000
0000
0000
0000
0030
0100
0000
0000
0000
0000
,  // measure 33
0000
0010
0000
0000
0000
0000
0000
0000
0000
0002
0000
0000
0000
0000
0010
0000
0003
0000
1000
0000
0000
0100
0000
0000
0020
0000
0000
0000
0000
0000
0000
0000
,  // measure 34
0000
0000
0000
0000
0000
0000
0000
0000
0000
0000
0000
0000
0000
0000
0000
0000
0000
0000
0000
0000
0000
0000
0000
0000
0000
0130
0000
0000
0100
0000
0100
0000
,  // measure 35
0000
0100
0000
0000
0100
0000
0000
0000
0100
0000
0100
0000
0000
0000
0000
0001
0000
0000
0000
1010
0000
0000
0000
0101
0000
0000
0000
0000
0110
0000
0000
0000
,  // measure 36
1001
0000
0000
0110
0000
0000
0101
0000
0000
0000
0000
0000
1010
0000
0000
0110
0000
0000
0000
0000
0000
0000
0000
1001
0000
0000
0110
0000
0000
0101
0000
0000
,  // measure 37
1000
0010
0000
0000
0000
0000
0000
0000
0101
0000
0000
0000
0000
1000
0010
0000
0000
0000
0000
0000
0101
0000
0000
0000
0000
0000
1010
0000
0000
0000
0000
0000
,  // measure 38
0101
0000
0000
0110
0000
0000
0000
0000
0000
1001
0000
0000
0010
0100
0000
0000
0101
0000
0000
0000
1010
0000
0000
0000
0000
0101
0000
0000
0110
0000
0000
0000
,  // measure 39
0000
1001
0000
0000
0000
0110
0000
0000
0101
0000
0000
1010
0000
0000
0000
0101
0000
0000
0000
0000
1010
0000
0000
1101
0000
0000
0000
0000
0000
0110
0000
0000
,  // measure 40
0000
1001
0000
0000
0100
0010
0000
1001
0000
0000
0000
0000
0000
0000
0111
0000
0000
0000
0000
0000
0101
0000
0000
0000
0000
0000
0000
1010
0000
0000
0000
0000
,  // measure 41
0000
0110
0000
0001
0100
0000
0000
1010
0000
0000
1001
0000
0000
0000
0000
0110
0000
0000
0110
0000
0000
0110
0000
0000
0000
0000
0000
1001
0000
0000
1001
0000
,  // measure 42
0000
0000
0000
0110
0000
0000
0110
0000
0000
0000
0000
1001
0000
0000
0001
1000
0000
0000
0000
0110
0000
0000
0101
0000
0000
0000
0000
0000
1001
0000
0000
1101
,  // measure 43
0000
0000
0000
0000
0000
0110
0000
0000
0110
0000
0000
0000
1001
0000
0000
1001
0000
0000
0000
0000
0000
0100
0010
0000
0000
0000
0000
0101
0000
0000
0000
0000
,  // measure 44
0000
0000
1010
0000
0000
0000
0000
0000
1101
0000
0000
0101
0000
0000
0110
0000
0000
0000
0101
0000
0000
0000
0000
0000
0101
0000
0000
0000
0101
0000
0000
0000
,  // measure 45
0000
0000
0020
0000
0000
0000
0000
0000
0000
0000
0200
0030
0000
0000
0000
0000
0000
2300
0000
0000
0000
0000
0002
0000
3000
0000
0000
0000
0000
0200
0003
0000
,  // measure 46
0000
0000
0020
0300
0000
0000
0000
0000
0000
1000
0030
0000
0000
0000
0000
0200
0000
0000
0000
0000
0000
0020
0300
0000
0000
0000
0000
0000
0200
0030
0000
0000
,  // measure 47
0000
0000
0302
0000
0000
0000
0000
0000
0000
0010
0000
0000
0000
0003
0000
0100
0000
0000
0000
0000
0010
0000
0000
0010
0000
0000
0000
0000
0100
0000
0001
0000
,  // measure 48
0000
0001
0010
0000
0000
0000
0000
1000
0000
0000
0010
0100
0000
0000
0000
0000
0000
0101
0000
0000
0000
0000
0000
1010
0000
0000
0000
0000
0000
0101
0000
0000
,  // measure 49
0000
0000
0000
1010
0000
0000
0000
0000
0001
0100
0000
0000
0101
0000
0000
0000
0000
0000
1010
0000
0000
0110
0000
0000
0000
0000
0000
0000
0101
0000
0000
0000
,  // measure 50
0000
0000
1010
0000
0000
0000
0000
0000
0000
0101
0000
0000
0000
0000
1010
0000
0000
0000
0101
0000
0000
0000
0110
0000
0000
1001
0000
0000
0000
0110
0000
0110
,  // measure 51
0000
0000
0000
0202
0000
0000
0000
0000
0000
0000
0000
0000
0000
0303
0000
0000
0110
0000
0000
0000
0000
0000
0000
1001
0000
0000
0000
0000
0000
0110
0000
0000
,  // measure 52
0000
0000
0000
0000
1010
0000
0000
0000
0000
0000
0101
0000
0000
0000
0000
0010
1000
0000
0000
1010
0000
0000
0000
0000
0000
0101
0000
0000
0101
0000
0000
0000
,  // measure 53
0000
0000
0000
1010
0000
0000
0000
0000
0000
0000
0101
0000
0000
0000
0000
0000
0110
0000
0000
0000
1001
0000
0000
0010
0100
0000
0000
0101
0000
0000
1010
0000
,  // measure 54
0000
0001
0100
0000
0010
0100
0000
0020
0100
0000
0000
0000
0000
0000
0000
0000
0000
0000
0000
0000
0030
0000
0002
0000
0000
0000
0000
0000
0000
0000
0000
0010
,  // measure 55
0003
0000
0020
0000
0000
0000
0000
0000
0000
0000
0000
0000
0000
0000
0000
0030
0200
0000
0000
0000
0000
0000
0000
0000
0000
0000
0000
0310
0000
0020
0000
0000
,  // measure 56
0000
0000
0000
0000
0000
0000
0000
0000
0000
0000
0000
0000
0000
0030
0000
1000
0000
0000
0000
0000
0000
0000
0110
0000
0000
0000
0000
0000
0000
0000
0101
0000
,  // measure 57
0000
0000
0000
0000
1010
0000
0000
0000
0000
0000
0101
0000
0000
0000
0000
0000
0000
0110
0000
0000
0000
0000
0000
0100
0010
0000
0000
0000
0000
0000
1001
0000
,  // measure 58
0000
1001
0000
0000
0000
0000
0000
0110
0000
0000
0110
0000
0000
0000
0000
0000
0000
0101
0000
0000
0101
0000
0000
0000
0000
0000
1010
0000
0000
0000
1010
0000
,  // measure 59
0010
0000
0000
0000
0000
0100
0001
0000
0000
0000
0000
0101
0000
0000
0000
0000
0000
0020
0000
0000
0000
0000
0000
0000
0000
0000
0000
0000
0000
0000
2030
0000
,  // measure 60
0000
0000
0000
0000
0000
0000
0000
0000
0000
0000
0000
3020
0000
0000
0000
0200
0030
0000
0020
0300
0000
0000
0000
0000
1030
0000
0100
0000
0010
0020
0000
0000
,  // measure 61
0000
0000
0000
0000
0000
0030
0200
0000
0000
0000
0000
0000
0010
0000
0000
0000
0010
0000
0010
0000
0301
0000
0002
0000
0000
0000
0000
0000
0000
0000
0000
2000
,  // measure 62
0003
0000
0000
0000
3200
0000
0000
0000
0000
0000
0310
0000
0020
0000
0000
0030
0000
0100
0000
0001
0000
0001
0000
0001
0000
0001
0000
0000
0000
0000
0002
0000
,  // measure 63
0000
0000
0000
0000
0000
0000
0000
0000
0010
0000
0000
0000
1000
0000
0010
0000
0000
0100
0000
0010
0000
0000
0000
0000
0000
0100
0000
0020
0000
0000
0000
0000
,  // measure 64
0000
0000
0030
0003
0000
0010
0000
0100
0000
0000
0000
0000
0100
0000
0010
0000
0000
0000
0000
0000
0100
0010
0000
0000
0000
0000
1001
0000
0000
0000
0000
0000
,  // measure 65
0000
0110
0000
0000
0000
0000
0000
0101
0000
0000
0000
0110
0000
0000
1001
0000
0000
0220
0000
0000
0000
0000
0000
0000
0300
0030
0000
0000
0000
0000
0000
0101
,  // measure 66
0000
0001
0100
0000
0000
0000
0000
1010
0000
0000
0000
1001
0000
0000
0000
0000
0110
0000
0000
0101
0000
0000
0000
1010
0000
0000
1101
0000
0000
0000
0000
0000
,  // measure 67
0110
0000
0000
0110
0000
0000
0000
0000
0000
1001
0000
0000
0110
0000
0000
0000
1101
0000
0000
0000
0110
0000
0000
0000
0000
0000
0000
1001
0000
0000
0000
0000
,  // measure 68
0000
1110
0000
0000
0000
0000
0000
1001
0000
0000
0000
0000
0000
0000
0110
0000
0000
0000
0000
0000
1001
0000
0000
0110
0000
0000
0000
0000
0000
1001
0000
0000
,  // measure 69
1010
0000
0000
0000
0000
0000
0000
0101
0000
0000
0000
0000
0101
0000
0000
1010
0000
1001
0100
0000
0000
0000
0000
0110
0000
0000
0110
0000
0000
0000
1001
0000
,  // measure 70
0000
1001
0000
0000
0000
0000
0000
0110
0000
0000
0110
0000
0000
0000
0000
0000
1001
0000
0000
1001
0000
0000
0001
0100
0000
0000
0111
0000
0000
0000
0000
0000
,  // measure 71
0000
1001
0000
0000
0000
0000
0000
0000
0110
0000
0000
0000
0000
0000
1001
0000
0000
0000
0000
0000
0000
0110
0000
0000
0101
0000
0000
0101
0000
0000
0000
1010
,  // measure 72
0000
0000
0000
0110
0000
0000
0000
0000
0001
0100
0000
0000
0000
0000
0000
0000
0002
0000
0000
0000
0000
0000
0020
0000
0000
0003
0000
0000
0200
0000
0030
0000
,  // measure 73
0000
0000
0020
0000
0300
0000
0000
0000
0000
0200
0030
0000
0000
0000
0000
0320
0000
0000
0000
0000
0000
1000
0030
0000
0000
0200
0000
0000
0000
0000
0000
0010
,  // measure 74
0300
0000
0000
0200
0000
0000
0000
0000
0000
0302
0000
0000
0000
0000
0000
0000
0103
0000
0000
0000
0000
0000
0110
0000
0000
0000
0000
0000
0000
0101
0000
0000
,  // measure 75
0000
0000
0000
1010
0000
0001
1000
0000
0000
0000
0000
0000
0110
0000
0000
0110
0000
0000
0000
0000
0000
1001
0000
0000
0000
0000
0000
1110
0000
0000
0000
0000
,  // measure 76
0000
0000
0101
0000
0000
0000
0000
0000
0110
0000
0000
0000
0000
0000
0101
0000
0000
1000
0010
0000
0000
0100
0010
0000
0100
0001
0000
0000
0000
0000
0000
0101
,  // measure 77
0202
0000
0000
0000
0000
0000
0000
0303
0000
0000
0000
0110
0000
0000
0110
0000
0000
0010
1000
0000
0000
1010
0000
0000
1000
0001
0000
0000
0000
0000
0000
0000
,  // measure 78
0110
0000
0000
0101
0000
0000
0000
0000
0000
0010
1000
0000
1010
0000
0000
0000
0000
0000
0000
0202
0000
0000
0000
0000
0000
0000
0303
0000
0000
0000
0110
0000
,  // measure 79
0000
0110
0000
0000
0000
0000
1001
0000
0000
0000
1001
0000
0000
0000
0000
0000
0110
0000
0000
0110
0000
0000
0000
0000
0000
0000
0101
0000
0000
0101
0000
0000
,  // measure 80
0000
1010
0000
0000
0000
0110
0000
0000
0002
0000
0000
0000
0000
0000
0000
0000
0000
0000
0003
0000
0000
0000
0110
0000
0000
0010
0100
0000
0000
1001
0000
0000
,  // measure 81
0000
0010
0100
0000
0000
0101
0000
0000
0000
1010
0000
0000
0101
0000
0000
0000
0110
0000
0000
0110
0000
0000
0000
0000
0000
0000
0202
0000
0000
0000
0000
0000
,  // measure 82
0000
0000
0300
0003
0000
0000
0000
0110
0000
0100
0010
0000
0000
1010
0000
0000
1000
0010
0000
0000
0001
0000
0000
0000
0101
0000
0000
0110
0000
0000
1000
0001
,  // measure 83
0000
0000
0000
0000
0110
0000
0000
0110
0000
0000
0000
0000
0000
0202
0000
0000
0000
0000
0000
0000
0303
0000
0000
0000
0110
0000
0000
0110
0000
0000
1001
0000
,  // measure 84
0000
0000
0000
0110
0000
0101
0000
0000
0000
0000
1010
0000
0000
0010
0000
0100
0001
0000
0000
0100
0001
0000
0000
0000
1010
0000
0000
0101
0000
0000
0000
0000
,  // measure 85
0000
0002
0000
0000
0000
0000
0000
0000
0000
0000
0000
0023
0000
0000
0000
0000
0000
0000
0000
0000
0000
0000
0000
0000
0000
0000
0000
0000
0000
0000
0000
0000
,  // measure 86
0000
0000
0000
0000
0000
0230
0000
0000
0000
0000
0000
0000
0000
0000
0000
0000
0000
0000
0000
0000
0000
0000
0000
0000
0000
0000
0000
0300
0020
0000
0000
0000
,  // measure 87
0000
0000
0000
0000
0000
0000
0030
0000
0002
0000
0000
0000
0000
0000
0000
0000
0000
0000
0200
0003
0000
0000
0000
0000
0000
0000
0000
0020
0300
0000
0000
0000
,  // measure 88
0000
0000
0000
0000
1030
0000
0000
0000
0000
0000
0000
0000
0110
0000
0000
0000
0000
0000
0000
0101
0000
0000
0000
0000
0000
1010
0000
0000
0000
0000
0000
0000
,  // measure 89
0101
0000
0000
0000
0000
0000
0110
0000
0000
0000
0000
1001
0000
0000
0000
0000
0000
0010
0100
0000
0110
0000
0000
0000
0000
0000
1001
0000
0000
1001
0000
0000
,  // measure 90
0000
0000
0000
0000
0000
0110
0000
0000
0000
0000
0000
0101
0000
0000
0000
0000
1000
0010
0000
0000
0000
1001
0000
0100
0010
0000
0000
1001
0000
0000
0110
0000
,  // measure 91
0000
0001
0100
0000
0000
0101
0000
0000
0002
0000
0000
0000
0000
0000
0000
0000
0000
0000
0000
0000
0000
0000
0003
0000
0000
0000
0000
0000
0000
0000
0000
0000
;
